<?xml version="1.0" standalone="no"?>
<!DOCTYPE svg PUBLIC "-//W3C//DTD SVG 1.1//EN" "http://www.w3.org/Graphics/SVG/1.1/DTD/svg11.dtd" >
<svg xmlns="http://www.w3.org/2000/svg">
<metadata>Generated by IcoMoon</metadata>
<defs>
<font id="MilkdownIcons" horiz-adv-x="1024">
<font-face units-per-em="1024" ascent="960" descent="-64" />
<missing-glyph horiz-adv-x="1024" />
<glyph unicode="&#x20;" horiz-adv-x="512" d="" />
<glyph unicode="&#xe900;" glyph-name="code-1" d="M344.747 905.301c-173.739-9.088-263.893-85.931-285.739-243.584-4.821-34.645-6.016-77.867-6.016-213.717 0-192.171 2.56-224.981 22.101-283.733 32.939-98.688 104.363-152.576 224.725-169.472 32.384-4.523 80-5.845 212.181-5.845s179.797 1.323 212.181 5.845c105.387 14.805 171.648 56.917 210.091 133.632 20.565 40.96 31.616 90.496 35.115 157.141 2.176 41.344 2.176 283.52 0 324.864-2.688 50.987-8.491 85.419-20.395 121.045-26.027 77.867-75.648 127.531-153.259 153.429-36.779 12.245-69.419 17.749-121.344 20.48-36.437 1.92-292.437 1.835-329.643-0.085zM716.8 838.229c118.869-19.712 166.997-68.267 185.515-187.136 2.816-17.963 3.072-35.157 3.072-203.093s-0.256-185.131-3.072-203.093c-18.603-119.381-67.84-168.619-187.221-187.221-17.963-2.816-35.157-3.072-203.093-3.072s-185.131 0.256-203.093 3.072c-119.040 18.56-168.832 68.139-187.136 186.368-2.944 18.987-3.157 33.749-3.157 203.947 0 202.795-0.171 198.955 11.264 243.712 21.888 85.589 71.595 128.597 167.083 144.555 31.147 5.248 46.421 5.589 223.573 5.248 160.555-0.299 180.139-0.597 196.267-3.285zM276.181 603.307c-7.723-6.357-15.061-20.693-15.061-29.44 0-12.757 5.419-18.944 27.307-31.147 29.78-16.746 54.686-38.656 74.315-64.759l0.437-0.607c5.632-7.637 11.221-16.683 12.331-20.096 4.352-13.227-1.024-25.984-21.376-50.389-17.536-21.035-41.899-40.491-70.827-56.533-15.744-8.747-20.779-14.549-21.803-25.088-1.024-10.795 5.291-24.832 14.635-32.512 12.544-10.368 27.435-6.315 63.573 17.237 38.699 25.216 79.104 68.565 92.971 99.627 4.83 11.289 7.639 24.424 7.639 38.216 0 8.149-0.98 16.069-2.83 23.649l0.14-0.681c-9.088 35.328-50.987 84.651-97.92 115.243-36.096 23.509-51.029 27.605-63.531 17.28zM545.579 350.805c-14.592-2.901-22.144-13.397-22.144-30.805 0-19.712 8.832-29.525 28.288-31.573 5.845-0.597 49.792-0.853 97.664-0.555 83.456 0.512 87.296 0.683 92.843 3.968 7.438 4.171 12.681 11.498 13.934 20.118l0.018 0.149c2.944 15.659-2.304 29.184-13.952 36.053-5.589 3.285-9.131 3.413-97.963 3.669-50.688 0.171-95.104-0.299-98.688-1.024z" />
<glyph unicode="&#xe901;" glyph-name="code-circle" d="M482.987 905.344c-182.571-10.411-344.235-133.461-404.352-307.883-15.704-44.631-24.776-96.092-24.776-149.672 0-38.536 4.693-75.977 13.539-111.78l-0.667 3.191c41.791-166.278 170.191-294.678 333.3-335.793l3.17-0.677c32.678-8.154 70.193-12.833 108.8-12.833s76.122 4.679 112.008 13.5l-3.208-0.667c166.278 41.791 294.678 170.191 335.793 333.3l0.677 3.17c8.154 32.678 12.833 70.193 12.833 108.8s-4.679 76.122-13.5 112.008l0.667-3.208c-44.659 177.773-188.681 312.61-368.233 343.171l-2.711 0.381c-17.408 2.859-71.168 7.211-79.445 6.443l-23.893-1.451zM560.896 839.595c46.242-5.856 88.221-18.993 126.555-38.306l-2.224 1.016c120.192-59.008 200.875-171.776 218.368-305.408 5.248-39.765 2.816-92.672-6.144-134.144-12.331-57.387-43.989-121.899-81.621-166.485-35.527-42.453-79-76.965-128.298-101.531l-2.304-1.039c-49.533-25.192-108.015-39.95-169.945-39.95-1.154 0-2.307 0.005-3.458 0.015l0.176-0.001c-1.005-0.010-2.192-0.015-3.381-0.015-61.896 0-120.345 14.759-172.019 40.95l2.173-0.999c-120.192 59.008-200.875 171.776-218.368 305.408-5.248 39.765-2.816 92.672 6.144 134.144 9.003 41.899 31.445 95.019 55.552 131.499 62.796 93.785 162.295 158.804 277.482 174.573l2.070 0.232c23.893 3.285 74.624 3.285 99.243 0.043zM543.573 578.517c-4.518-1.813-8.351-4.481-11.459-7.831l-0.018-0.020c-2.603-3.115-23.851-50.304-49.365-109.739-49.323-114.944-50.048-117.205-42.069-128.939 7.509-11.051 26.368-18.389 38.613-15.019 12.416 3.413 14.251 6.869 61.781 117.675 49.493 115.328 50.261 117.589 42.368 129.408-4.139 6.187-18.347 14.293-27.904 15.915-0.733 0.064-1.586 0.1-2.447 0.1-3.399 0-6.666-0.568-9.71-1.614l0.21 0.063zM332.8 565.547c-4.523-1.323-18.304-14.080-56.619-52.395-55.893-55.893-56.619-56.917-52.523-72.405 1.664-6.315 8.533-13.909 52.523-57.899 55.808-55.765 57.003-56.661 72.192-52.565 9.429 2.56 22.784 15.915 25.344 25.344 3.883 14.464 1.707 17.792-37.163 56.96l-35.157 35.413 35.157 35.413c29.781 29.995 35.456 36.523 37.12 42.709 5.845 21.76-19.029 45.739-40.875 39.424zM674.389 565.547c-8.235-2.432-21.76-16.597-24.107-25.173-3.883-14.464-1.707-17.792 37.163-56.96l35.157-35.413-35.157-35.413c-38.869-39.168-41.045-42.496-37.163-56.96 2.56-9.429 15.915-22.784 25.344-25.344 15.189-4.096 16.384-3.2 72.192 52.565 43.989 43.989 50.859 51.584 52.523 57.899 4.053 15.317 3.029 16.725-50.005 70.059-26.411 26.581-50.347 49.749-53.163 51.499-4.338 2.659-9.59 4.234-15.21 4.234-2.693 0-5.302-0.362-7.78-1.039l0.206 0.048z" />
<glyph unicode="&#xe902;" glyph-name="dots" d="M479.573 958.891c-59.477-5.632-93.099-12.501-137.984-28.245-97.564-35.172-178.773-95.901-238.045-174.163l-0.931-1.282c-90.283-119.509-122.965-272.683-89.771-420.651 26.197-116.949 94.123-221.739 191.659-295.723 67.968-51.584 146.304-83.968 237.483-98.176 33.451-5.205 106.581-5.205 140.032 0 124.416 19.413 230.187 75.477 309.547 164.181 70.357 78.635 111.019 165.547 127.787 273.152 5.291 34.133 5.205 106.368-0.213 141.696-22.699 147.968-101.803 273.323-223.189 353.749-75.52 50.048-154.112 77.397-243.499 84.779-20.181 1.664-58.709 2.005-72.875 0.683z" />
<glyph unicode="&#xe903;" glyph-name="grid-10" d="M344.747 905.301c-173.739-9.088-263.893-85.931-285.739-243.584-4.821-34.645-6.016-77.867-6.016-213.717 0-192.171 2.56-224.981 22.101-283.733 32.939-98.688 104.363-152.576 224.725-169.472 32.384-4.523 80-5.845 212.181-5.845s179.797 1.323 212.181 5.845c105.387 14.805 171.648 56.917 210.091 133.632 20.565 40.96 31.616 90.496 35.115 157.141 2.176 41.344 2.176 283.52 0 324.864-2.688 50.987-8.491 85.419-20.395 121.045-26.027 77.867-75.648 127.531-153.259 153.429-36.779 12.245-69.419 17.749-121.344 20.48-36.437 1.92-292.437 1.835-329.643-0.085zM716.8 838.229c118.315-19.627 166.443-67.755 185.344-185.429 2.261-14.208 3.029-33.835 3.627-95.147l0.811-77.227h-789.163l0.811 77.227c0.811 82.688 1.707 93.397 10.837 130.987 21.163 87.253 71.552 131.541 167.893 147.627 31.147 5.248 46.421 5.589 223.573 5.248 160.555-0.299 180.139-0.597 196.267-3.285zM905.771 338.347c-0.811-83.755-1.664-93.611-11.477-133.035-19.456-78.123-61.44-120.149-139.605-139.605-45.483-11.349-40.235-11.093-242.688-11.093-167.936 0-185.131 0.256-203.093 3.072-118.784 18.517-168.277 67.541-187.051 185.515-2.261 14.165-3.029 34.176-3.627 95.147l-0.811 77.227h789.163l-0.811-77.227z" />
<glyph unicode="&#xe904;" glyph-name="hierarchy" d="M206.976 905.259c-49.539-5.056-92.227-30.752-119.864-68.228l-0.328-0.466c-20.496-27.784-32.803-62.7-32.803-100.49 0-5.66 0.276-11.256 0.816-16.775l-0.055 0.7c2.091-22.4 6.827-39.083 16.939-59.52 21.077-42.752 59.179-74.496 106.24-88.619 2.816-0.811 2.987-8.661 2.987-133.248 0-104.448-0.469-132.523-2.133-132.992-51.456-14.933-83.371-39.168-105.429-80-12.047-20.994-19.152-46.155-19.152-72.975 0-1.165 0.013-2.326 0.040-3.485l-0.003 0.172c0-29.099 5.504-51.072 19.2-76.459 14.485-27.307 36.285-49.080 62.802-63.137l0.814-0.394c20.994-12.047 46.155-19.152 72.975-19.152 1.165 0 2.326 0.013 3.485 0.040l-0.172-0.003c29.013 0 51.072 5.504 76.288 19.115 27.331 14.451 49.131 36.223 63.222 62.72l0.394 0.811c13.696 25.387 19.2 47.36 19.2 76.459 0 29.013-5.504 51.072-19.115 76.288-22.059 40.832-53.973 65.067-105.429 80-1.664 0.469-2.133 18.517-2.133 82.731v82.133l8.064-7.083c18.944-16.683 51.243-34.176 75.563-40.917 26.411-7.296 31.445-7.595 132.267-7.808 107.179-0.171 110.592-0.469 142.805-11.221 51.2-17.152 98.645-55.936 123.307-100.779 3.371-6.101 6.101-11.52 6.101-12.032 0-0.469-4.949-4.096-11.051-8.021-35.449-23.822-60.672-60.52-69.039-103.256l-0.167-1.021c-1.263-8.716-1.984-18.781-1.984-29.013s0.721-20.297 2.115-30.145l-0.131 1.131c9.169-48.265 39.096-88.12 79.943-110.561l0.825-0.415c20.994-12.047 46.155-19.152 72.975-19.152 1.165 0 2.326 0.013 3.485 0.040l-0.172-0.003c29.013 0 51.072 5.504 76.288 19.115 27.331 14.451 49.131 36.223 63.222 62.72l0.394 0.811c13.696 25.387 19.2 47.36 19.2 76.459 0 29.013-5.504 51.072-19.115 76.288-14.451 27.331-36.223 49.131-62.72 63.222l-0.811 0.394c-21.379 12.175-46.964 19.369-74.227 19.413h-0.013l-16 0.299-8.704 16.213c-37.953 70.735-102.555 123.008-180.040 143.837l-2.019 0.462c-30.72 7.979-51.285 9.259-148.736 9.259-83.285 0.043-90.581 0.256-103.637 3.371-31.317 7.644-57.811 24.903-76.893 48.42l-0.206 0.262c-8.789 10.795-20.651 31.019-20.651 35.115 0.043 1.579 4.949 3.797 14.080 6.315 72.123 20.765 123.992 86.163 123.992 163.676 0 11.851-1.213 23.419-3.52 34.587l0.19-1.1c-15.873 78.51-84.311 136.789-166.361 136.789-6.13 0-12.184-0.325-18.146-0.96l0.742 0.064zM250.112 839.68c30.173-8.284 54.61-28.374 68.492-54.866l0.287-0.601c9.301-18.901 12.843-35.627 11.563-54.741-1.877-27.605-11.221-48.128-31.189-68.352-33.408-33.835-80.128-41.387-123.477-20.011-27.092 14.169-47.183 38.605-55.286 68.012l-0.18 0.767c-3.243 12.928-3.243 37.888 0 51.712 8.448 35.84 41.643 69.333 77.312 77.995 13.227 3.2 39.936 3.243 52.48 0.085zM237.995 242.304c15.829-4.139 29.696-12.416 42.795-25.515 19.627-19.627 28.117-39.979 28.117-67.456s-8.491-47.829-28.117-67.456c-19.627-19.627-39.979-28.117-67.456-28.117s-47.829 8.491-67.456 28.117c-19.627 19.627-28.117 39.979-28.117 67.456s8.491 47.829 28.117 67.456c12.8 12.843 26.923 21.333 42.027 25.429 12.288 3.285 37.589 3.328 50.091 0.085zM835.328 242.304c15.829-4.139 29.696-12.416 42.795-25.515 19.627-19.627 28.117-39.979 28.117-67.456s-8.491-47.829-28.117-67.456c-19.627-19.627-39.979-28.117-67.456-28.117s-47.829 8.491-67.456 28.117c-19.627 19.627-28.117 39.979-28.117 67.456s8.491 47.829 28.117 67.456c12.8 12.843 26.923 21.333 42.027 25.429 12.288 3.285 37.589 3.328 50.091 0.085z" />
<glyph unicode="&#xe905;" glyph-name="image" d="M278.656 905.216c-51.797-5.547-100.736-40.149-124.203-87.723-12.672-25.728-15.317-37.973-15.317-70.827 0-24.149 0.555-30.123 3.883-41.813 18.133-63.787 73.557-110.635 138.069-116.693 50.603-4.779 98.304 12.928 132.139 48.981 27.028 28.478 43.651 67.060 43.651 109.525s-16.623 81.047-43.716 109.595l0.066-0.070c-29.417 30.84-70.828 50.016-116.717 50.016-6.29 0-12.496-0.36-18.598-1.061l0.745 0.070zM321.365 839.68c16.811-4.352 30.080-12.288 44.032-26.24 19.84-19.883 27.52-38.571 27.52-66.773s-7.68-46.891-27.52-66.773c-20.224-20.224-40.448-28.8-68.139-28.8-26.965 0-47.787 8.491-66.859 27.307-20.651 20.395-28.117 38.528-28.117 68.267s7.467 47.872 28.16 68.267c19.2 18.944 38.656 26.965 65.749 27.179 8.576 0.085 19.755-0.981 25.173-2.432zM687.787 661.291c-13.611-1.621-30.891-8.021-44.928-16.555-14.549-8.875-39.637-34.261-51.072-51.669-5.205-7.979-28.885-49.451-52.565-92.16-24.479-45.569-40.309-73.185-56.505-100.56l8.803 16.080c-6.4-9.344-20.139-21.888-29.184-26.709-6.357-3.371-9.984-4.011-23.723-4.011-15.147 0-16.896 0.384-26.752 5.717-11.051 5.973-24.704 19.328-45.312 44.16-18.987 22.827-48.896 42.752-73.728 49.067-8.714 2.378-18.72 3.744-29.045 3.744-23.81 0-45.922-7.266-64.241-19.702l0.4 0.256c-30.848-20.864-37.845-31.403-89.771-135.168-23.723-47.488-45.141-92.16-47.616-99.243-5.976-17.456-9.425-37.567-9.425-58.483 0-28.598 6.449-55.691 17.972-79.902l-0.483 1.126c25.899-54.656 71.595-90.965 131.627-104.576 10.581-2.432 43.733-2.816 291.84-3.371 290.176-0.64 310.229-0.256 336 6.357 86.997 22.272 147.072 107.947 138.027 196.821-1.434 12.981-3.67 24.63-6.734 35.938l0.377-1.634c-4.907 16.811-136.192 324.864-149.845 351.531-29.909 58.539-75.221 88.832-124.117 82.944zM715.947 594.176c10.965-5.12 28.587-24.021 36.992-39.723 9.984-18.645 144.597-334.635 148.565-348.8 6.571-23.253 4.139-55.253-5.931-78.336-14.507-33.323-47.275-61.184-82.56-70.187-12.8-3.285-20.267-3.371-301.867-3.371-283.051 0-288.981 0.085-302.251 3.413-43.435 10.965-76.501 44.032-88.747 88.747-4.864 17.664-4.139 46.635 1.579 64 2.475 7.509 23.296 51.456 46.293 97.621 39.552 79.445 42.411 84.608 52.821 95.616 16.683 17.749 33.024 24.192 52.181 20.651 18.219-3.371 31.573-13.184 53.504-39.381 24.832-29.611 37.803-40.576 61.056-51.541 17.621-8.32 32-11.605 51.029-11.733 42.581-0.171 81.195 22.4 107.776 63.019 4.224 6.485 26.368 45.568 49.195 86.869 47.104 85.291 52.437 93.824 67.456 108.245 19.029 18.261 35.627 22.955 52.907 14.891z" />
<glyph unicode="&#xe906;" glyph-name="link" d="M283.307 711.68c-108.431-15.728-194.847-94.759-221.252-197.831l-0.402-1.849c-4.836-19.194-7.61-41.229-7.61-63.912 0-22.747 2.79-44.841 8.048-65.961l-0.395 1.873c22.182-86.172 83.969-154.395 164.306-185.069l1.838-0.616c35.072-13.099 60.459-16.555 120.917-16.555 43.051 0 45.056 0.128 52.352 3.84 10.667 5.419 13.995 11.989 13.995 27.733 0 14.848-3.2 21.845-12.373 27.264-5.504 3.2-9.771 3.541-57.131 4.48-39.040 0.811-54.443 1.749-64.853 4.011-95.744 20.736-162.987 102.741-162.987 198.656 0 34.901 6.784 62.464 23.125 94.080 24.158 45.241 63.525 79.695 111.133 96.957l1.422 0.451c26.709 9.259 37.077 10.581 92.16 11.691 47.36 0.939 51.627 1.28 57.131 4.48 9.173 5.419 12.373 12.416 12.373 27.264 0 15.744-3.328 22.315-13.995 27.733-7.339 3.712-9.045 3.84-54.571 3.669-28.117-0.128-53.547-1.067-63.232-2.389zM625.195 712.363c-20.181-5.845-23.552-43.093-5.12-56.832 4.565-3.413 7.467-3.627 57.173-4.608 40.064-0.811 55.552-1.749 66.005-4.011 95.787-20.693 162.987-102.699 162.987-198.912 0-98.432-70.357-181.803-168.747-199.979-5.291-0.981-32.768-2.261-61.099-2.859-48.811-1.067-51.755-1.28-56.32-4.693-8.405-6.272-11.648-13.824-11.648-27.136s3.243-20.864 11.648-27.136c4.651-3.456 6.571-3.584 59.733-3.541 62.336 0 73.003 1.28 107.179 12.715 40.993 13.526 76.027 35.544 104.482 64.119l0.009 0.009c48.338 47.387 78.302 113.362 78.302 186.336 0 0.761-0.003 1.522-0.010 2.281l0.001-0.116c0 24.747-2.048 42.283-7.467 64-26.939 105.303-113.976 184.508-221.573 199.52l-1.403 0.16c-21.675 2.859-104.875 3.371-114.133 0.683zM332.245 478.805c-14.592-2.901-22.144-13.397-22.144-30.805 0-19.712 8.832-29.568 28.288-31.531 5.845-0.597 88.192-0.853 182.997-0.555 168.832 0.512 172.501 0.597 178.176 3.925 11.648 6.869 16.896 20.395 13.952 36.053-1.271 8.769-6.514 16.095-13.813 20.195l-0.139 0.072c-5.675 3.371-9.088 3.413-183.296 3.669-97.621 0.128-180.437-0.341-184.021-1.024z" />
<glyph unicode="&#xe907;" glyph-name="paperclip-2" d="M537.6 828.672c-61.291-9.403-115.53-34.301-160.191-70.544l0.617 0.485c-7.509-5.973-59.776-57.003-116.181-113.365-102.869-102.869-115.755-116.992-132.523-145.195-15.707-26.044-27.98-56.275-35.161-88.427l-0.38-2.026c-4.651-21.717-6.443-72.277-3.413-95.36 7.017-50.685 26.065-95.926 54.158-134.1l-0.568 0.809c12.757-17.28 29.355-35.285 36.608-39.723 14.805-9.003 33.92-1.621 43.563 16.811 7.68 14.677 5.333 21.035-17.024 46.251-65.877 74.283-73.515 186.624-18.432 270.549 8.192 12.544 27.264 32.512 116.651 122.155 58.752 58.965 112.213 111.317 118.784 116.395 89.728 69.12 214.912 73.685 308.907 11.349 72.763-48.427 120.062-130.1 120.062-222.82 0-49.032-13.227-94.974-36.307-134.454l0.682 1.263c-14.805-25.856-28.544-40.875-126.549-138.453-89.344-89.003-98.901-97.963-110.123-103.723-15.504-8.201-33.89-13.015-53.4-13.015-0.247 0-0.493 0.001-0.739 0.002h0.038c-33.451 0.128-59.733 10.88-82.603 33.749-24.576 24.576-34.859 49.365-34.688 83.712 0.085 21.845 2.859 33.621 12.501 53.163 6.912 14.037 9.259 16.64 70.656 78.507 68.395 68.992 69.205 70.016 66.475 84.565-1.664 8.96-18.347 25.643-27.307 27.307-14.507 2.731-15.915 1.664-80-62.123-32.683-32.512-64-65.152-69.632-72.533-11.947-15.787-25.557-42.923-30.379-60.629-3.989-14.354-6.281-30.837-6.281-47.855 0-17.98 2.559-35.362 7.333-51.802l-0.326 1.31c20.693-71.936 83.627-124.16 157.013-130.219 47.531-3.925 89.173 8.064 128 36.949 13.611 10.112 191.744 188.501 205.611 205.909 34.617 42.781 59.136 95.118 69.129 152.444l0.29 2.009c4.139 23.552 4.907 72.235 1.536 96.427-20.992 151.040-133.675 264.149-283.861 284.928-13.039 1.562-28.138 2.454-43.446 2.454-17.31 0-34.353-1.14-51.059-3.349l1.962 0.212z" />
<glyph unicode="&#xe908;" glyph-name="task" d="M286.72 841.045c-3.285-1.579-30.72-27.392-60.928-57.387l-54.955-54.571-12.8 11.989c-18.731 17.493-28.331 20.949-41.216 14.805-8.107-3.84-18.944-16.171-21.376-24.363-3.84-12.715 0.384-19.541 30.72-49.835 15.488-15.531 29.355-27.861 33.237-29.653 10.069-4.608 19.541-2.859 30.464 5.589 4.907 3.797 37.845 35.968 73.131 71.424 70.955 71.381 72.533 73.429 68.224 87.808-2.432 8.192-13.269 20.523-21.376 24.363-3.332 1.623-7.248 2.572-11.387 2.572-4.276 0-8.315-1.013-11.891-2.812l0.152 0.069zM452.224 753.067c-10.667-5.419-14.165-12.288-14.165-27.733s3.499-22.315 14.165-27.733l7.595-3.84h445.696l7.595 3.84c10.667 5.419 13.995 11.989 13.995 27.733s-3.328 22.315-13.995 27.733l-7.595 3.84h-445.696l-7.595-3.84zM286.72 542.379c-3.285-1.579-30.72-27.392-60.928-57.387l-54.955-54.571-12.8 11.989c-18.731 17.493-28.331 20.949-41.216 14.805-8.107-3.84-18.944-16.171-21.376-24.363-3.84-12.715 0.384-19.541 30.72-49.835 15.488-15.531 29.355-27.861 33.237-29.653 10.069-4.608 19.541-2.859 30.464 5.589 4.907 3.797 37.845 35.968 73.131 71.424 70.955 71.381 72.533 73.429 68.224 87.808-2.432 8.192-13.269 20.523-21.376 24.363-3.332 1.623-7.248 2.572-11.387 2.572-4.276 0-8.315-1.013-11.891-2.812l0.152 0.069zM452.224 454.4c-10.667-5.419-14.165-12.288-14.165-27.733s3.499-22.315 14.165-27.733l7.595-3.84h445.696l7.595 3.84c10.667 5.419 13.995 11.989 13.995 27.733s-3.328 22.315-13.995 27.733l-7.595 3.84h-445.696l-7.595-3.84zM286.72 243.712c-3.285-1.579-30.72-27.392-60.928-57.387l-54.955-54.571-12.8 11.989c-18.731 17.493-28.331 20.949-41.216 14.805-8.107-3.84-18.944-16.171-21.376-24.363-3.84-12.715 0.384-19.541 30.72-49.835 15.488-15.531 29.355-27.861 33.237-29.653 10.069-4.608 19.541-2.859 30.464 5.589 4.907 3.797 37.845 35.968 73.131 71.424 70.955 71.381 72.533 73.429 68.224 87.808-2.432 8.192-13.269 20.523-21.376 24.363-3.332 1.623-7.248 2.572-11.387 2.572-4.276 0-8.315-1.013-11.891-2.812l0.152 0.069zM452.224 155.733c-10.667-5.419-14.165-12.288-14.165-27.733s3.499-22.315 14.165-27.733l7.595-3.84h445.696l7.595 3.84c10.667 5.419 13.995 11.989 13.995 27.733s-3.328 22.315-13.995 27.733l-7.595 3.84h-445.696l-7.595-3.84z" />
<glyph unicode="&#xe909;" glyph-name="task-dots" d="M218.325 787.115c-17.792-5.077-34.048-19.2-42.24-36.736-3.84-8.192-4.523-12.032-4.523-25.088-0.043-13.952 0.469-16.469 5.504-26.624 6.656-13.568 18.859-25.557 32.469-31.872 8.277-3.883 12.117-4.565 25.173-4.565 13.952-0.043 16.469 0.469 26.624 5.504 13.568 6.656 25.557 18.859 31.872 32.469 3.883 8.32 4.565 12.075 4.565 25.131s-0.683 16.811-4.565 25.131c-9.767 21.335-30.161 36.285-54.222 38.13l-0.221 0.014c-7.509 0.427-15.787-0.171-20.437-1.493zM452.224 753.067c-10.667-5.419-14.165-12.288-14.165-27.733s3.499-22.315 14.165-27.733l7.595-3.84h445.696l7.595 3.84c10.667 5.419 13.995 11.989 13.995 27.733s-3.328 22.315-13.995 27.733l-7.595 3.84h-445.696l-7.595-3.84zM218.325 488.448c-17.792-5.077-34.048-19.2-42.24-36.736-3.84-8.192-4.523-12.032-4.523-25.088-0.043-13.952 0.469-16.469 5.504-26.624 6.656-13.568 18.859-25.557 32.469-31.872 8.277-3.883 12.117-4.565 25.173-4.565 13.952-0.043 16.469 0.469 26.624 5.504 13.568 6.656 25.557 18.859 31.872 32.469 3.883 8.32 4.565 12.075 4.565 25.131s-0.683 16.811-4.565 25.131c-9.767 21.335-30.161 36.285-54.222 38.13l-0.221 0.014c-7.509 0.427-15.787-0.171-20.437-1.493zM452.224 454.4c-10.667-5.419-14.165-12.288-14.165-27.733s3.499-22.315 14.165-27.733l7.595-3.84h445.696l7.595 3.84c10.667 5.419 13.995 11.989 13.995 27.733s-3.328 22.315-13.995 27.733l-7.595 3.84h-445.696l-7.595-3.84zM218.325 189.781c-17.792-5.077-34.048-19.2-42.24-36.736-3.84-8.192-4.523-12.032-4.523-25.088-0.043-13.952 0.469-16.469 5.504-26.624 6.656-13.568 18.859-25.557 32.469-31.872 8.277-3.883 12.117-4.565 25.173-4.565 13.952-0.043 16.469 0.469 26.624 5.504 13.568 6.656 25.557 18.859 31.872 32.469 3.883 8.32 4.565 12.075 4.565 25.131s-0.683 16.811-4.565 25.131c-9.767 21.335-30.161 36.285-54.222 38.13l-0.221 0.014c-7.509 0.427-15.787-0.171-20.437-1.493zM452.224 155.733c-10.667-5.419-14.165-12.288-14.165-27.733s3.499-22.315 14.165-27.733l7.595-3.84h445.696l7.595 3.84c10.667 5.419 13.995 11.989 13.995 27.733s-3.328 22.315-13.995 27.733l-7.595 3.84h-445.696l-7.595-3.84z" />
<glyph unicode="&#xe90a;" glyph-name="task-numbered" d="M213.76 803.541l-19.2-11.264v-33.749l4.693 2.432c2.603 1.365 10.069 5.589 16.64 9.472l11.947 6.997 0.853-60.203 0.853-60.16h35.84l0.427 78.933 0.469 78.933-33.323-0.171-19.2-11.221zM452.224 753.067c-10.667-5.419-14.165-12.288-14.165-27.733s3.499-22.315 14.165-27.733l7.595-3.84h445.696l7.595 3.84c10.667 5.419 13.995 11.989 13.995 27.733s-3.328 22.315-13.995 27.733l-7.595 3.84h-445.696l-7.595-3.84zM207.829 515.541c-9.685-2.773-21.205-9.344-26.624-15.147l-3.925-4.224 7.979-12.544c4.437-6.912 8.277-12.885 8.576-13.227 0.341-0.341 2.645 1.792 5.12 4.779 6.692 7.791 16.554 12.696 27.563 12.696 0.465 0 0.928-0.009 1.389-0.026l-0.067 0.002c11.349 0 20.053-3.541 23.168-9.387 2.944-5.461 2.219-15.659-1.621-23.168-3.712-7.339-22.997-26.197-53.632-52.523l-19.883-17.067-0.085-28.16h117.76v30.72l-64 0.171 13.653 12.203c24.491 21.931 34.475 33.067 40.405 45.141 4.992 10.197 5.675 13.141 5.632 25.216 0 10.795-0.811 15.189-3.755 20.779-5.841 9.846-14.626 17.418-25.128 21.597l-0.344 0.121c-10.837 4.181-40.747 5.333-52.181 2.048zM452.224 454.4c-10.667-5.419-14.165-12.288-14.165-27.733s3.499-22.315 14.165-27.733l7.595-3.84h445.696l7.595 3.84c10.667 5.419 13.995 11.989 13.995 27.733s-3.328 22.315-13.995 27.733l-7.595 3.84h-445.696l-7.595-3.84zM221.013 219.179c-13.056-1.28-22.144-4.267-30.72-10.155-13.653-9.344-13.653-9.387-4.565-24.064l8.064-12.971 7.851 7.125c12.501 11.307 27.989 14.165 41.984 7.808 15.701-7.125 13.013-24.576-4.693-30.635-6.92-1.606-14.99-2.693-23.254-3.021l-0.255-0.008c-14.933-0.896-17.408-1.451-16.768-3.755 0.427-1.493 1.28-6.187 1.877-10.411 1.963-13.611 0.597-12.8 20.907-12.843 13.867-0.085 19.669-0.768 23.723-2.987 15.445-8.235 16.811-25.344 2.645-32.64-13.269-6.784-31.275-4.053-45.312 6.869l-10.112 7.808-10.197-10.197c-10.112-10.112-10.155-10.197-7.339-14.549 3.627-5.504 18.261-15.573 28.245-19.413 5.76-2.176 12.843-2.944 28.16-2.901 26.112 0.043 36.736 3.584 49.579 16.683 10.368 10.581 13.653 19.968 12.245 35.328-0.644 11.441-6.614 21.364-15.451 27.399l-0.122 0.079-5.717 3.755 7.339 7.168c10.837 10.539 13.611 23.765 8.491 40.917-6.101 20.608-33.579 32.811-66.603 29.611zM452.224 155.733c-10.667-5.419-14.165-12.288-14.165-27.733s3.499-22.315 14.165-27.733l7.595-3.84h445.696l7.595 3.84c10.667 5.419 13.995 11.989 13.995 27.733s-3.328 22.315-13.995 27.733l-7.595 3.84h-445.696l-7.595-3.84z" />
<glyph unicode="&#xe90b;" glyph-name="text-bold" d="M271.488 883.029c-36.754-7.389-66.786-31.131-82.637-63.144l-0.307-0.685c-3.764-7.524-7.063-16.327-9.434-25.503l-0.208-0.95c-3.328-16.341-3.328-673.152 0-689.493 7.637-37.931 39.765-73.728 77.568-86.571l14.037-4.736 177.493-0.512c185.131-0.555 195.627-0.256 222.592 6.741 59.179 15.36 105.6 48.725 139.605 100.267 16.102 24.458 27.96 53.229 33.738 84.141l0.225 1.448c4.352 23.979 3.925 63.787-0.896 86.741-17.835 84.565-75.947 150.187-156.757 176.939l-19.2 6.357 11.52 12.16c35.584 37.461 56.533 79.061 64.469 128.128 2.944 18.133 3.285 52.352 0.683 69.675-15.465 102.682-95.565 182.826-196.929 198.195l-1.3 0.162c-13.568 2.048-39.765 2.475-141.696 2.347-68.736-0.128-128.427-0.853-132.565-1.707zM553.173 816.299c57.813-15.787 101.76-56.448 120.619-111.531 5.513-16.058 8.696-34.559 8.696-53.805 0-34.421-10.183-66.465-27.7-93.282l0.401 0.654c-24.32-37.035-55.424-59.563-101.376-73.301-11.691-3.499-15.403-3.627-162.56-4.181l-150.613-0.555v299.648l4.864 10.24c7.083 14.976 20.352 26.069 35.627 29.739 3.669 0.896 60.203 1.408 131.029 1.237l124.587-0.341 16.427-4.523zM657.067 410.709c71.68-22.016 119.125-77.995 126.080-148.736 0.511-4.955 0.802-10.706 0.802-16.526 0-85.475-62.867-156.266-144.884-168.659l-0.942-0.117c-14.251-2.133-43.776-2.432-187.136-2.048-169.813 0.469-170.24 0.469-178.133 4.096-11.812 5.723-21.171 14.957-26.898 26.333l-0.152 0.333-5.163 10.368v299.904l403.627-0.981 12.8-3.968z" />
<glyph unicode="&#xe90c;" glyph-name="text-italic" d="M401.707 862.848c-9.771-1.621-15.744-6.016-19.499-14.336-7.168-15.787-2.176-37.419 10.325-44.629 5.717-3.328 9.259-3.456 90.027-3.968 46.208-0.299 84.011-1.067 84.011-1.707-0.043-0.683-39.424-158.635-87.595-351.061l-87.509-349.867-92.032-0.853c-88.192-0.811-92.331-0.981-97.877-4.267-7.438-4.171-12.681-11.498-13.934-20.118l-0.018-0.149c-2.944-15.659 2.304-29.184 13.952-36.053 5.717-3.371 8.875-3.413 214.016-3.413 199.424 0 208.469 0.128 214.571 3.157 10.069 5.035 14.123 13.141 14.123 28.416s-4.053 23.381-14.123 28.416c-5.888 2.901-12.544 3.2-89.557 3.669-45.739 0.299-83.157 1.067-83.157 1.707 0.043 0.64 39.424 158.635 87.595 351.061l87.509 349.867 92.032 0.853c88.192 0.811 92.331 0.981 97.877 4.267 10.709 6.315 12.971 11.179 12.971 28.16s-2.261 21.845-12.971 28.16c-5.717 3.371-9.088 3.413-209.749 3.627-112.171 0.128-207.104-0.256-210.987-0.939z" />
<glyph unicode="&#xe90d;" glyph-name="text-underline" d="M204.245 862.805c-8.256-1.688-15.068-6.807-18.999-13.769l-0.073-0.14c-3.328-5.675-3.413-9.344-3.925-157.696-0.512-159.403 0.384-189.739 6.571-221.909 7.509-38.912 26.88-86.101 48.597-118.443 32.542-48.571 76.325-87.239 127.753-112.846l1.911-0.861c148.779-73.472 328.32-25.045 421.504 113.707 21.461 31.915 39.637 75.776 47.915 115.584 6.869 33.024 7.851 62.848 7.253 225.621-0.512 147.456-0.597 151.168-3.925 156.843-4.171 7.438-11.498 12.681-20.118 13.934l-0.149 0.018c-15.659 2.944-29.184-2.304-36.053-13.952-3.328-5.675-3.456-9.813-4.437-179.029-0.64-111.147-1.664-176.299-2.816-181.76-12.501-59.136-34.901-102.229-73.429-141.397-19.798-20.654-43.002-37.848-68.745-50.718l-1.442-0.653c-33.905-17.784-74.073-28.22-116.678-28.22-1.041 0-2.080 0.006-3.118 0.019l0.158-0.001c-0.704-0.007-1.535-0.011-2.367-0.011-73.563 0-140.006 30.485-187.386 79.51l-0.071 0.074c-38.806 38.862-65.47 89.856-73.813 146.804l-0.171 1.42c-1.877 12.203-2.389 48.469-2.475 176.64-0.043 88.704-0.768 164.608-1.536 168.704-3.371 17.408-19.541 26.496-39.936 22.528zM204.245 94.805c-14.592-2.859-22.144-13.397-22.144-30.805 0-19.712 8.832-29.568 28.288-31.531 5.845-0.597 145.792-0.853 310.997-0.555 296.832 0.512 300.459 0.555 306.176 3.925 7.438 4.171 12.681 11.498 13.934 20.118l0.018 0.149c2.944 15.659-2.304 29.184-13.952 36.053-5.76 3.371-9.088 3.413-311.296 3.669-168.021 0.128-308.437-0.341-312.021-1.024z" />
<glyph unicode="&#xe90e;" glyph-name="math" horiz-adv-x="740" d="M65.308 859.591v-51.029l154.112-184.036c84.708-101.262 153.771-184.718 153.486-185.515s-72.647-91.648-160.825-201.842l-160.313-200.363v-99.84h676.693l-0.284 54.5-0.341 54.556-267.207-0.228c-208.1-0.228-266.98 0.057-266.297 1.195 0.512 0.853 70.144 88.405 154.738 194.617l153.828 193.138v35.84l-136.988 162.418c-111.077 133.424-156.805 187.303-202.638 241.090l62.805-75.544-2.844 3.072 487.993-0.74v109.796h-645.916v-51.086z" />
<glyph unicode="&#xe90f;" glyph-name="video-play" d="M344.747 905.301c-173.739-9.088-263.893-85.931-285.739-243.584-4.821-34.645-6.016-77.867-6.016-213.717 0-192.171 2.56-224.981 22.101-283.733 32.939-98.688 104.363-152.576 224.725-169.472 32.384-4.523 80-5.845 212.181-5.845s179.797 1.323 212.181 5.845c105.387 14.805 171.648 56.917 210.091 133.632 20.565 40.96 31.616 90.496 35.115 157.141 2.176 41.344 2.176 283.52 0 324.864-2.688 50.987-8.491 85.419-20.395 121.045-26.027 77.867-75.648 127.531-153.259 153.429-36.779 12.245-69.419 17.749-121.344 20.48-36.437 1.92-292.437 1.835-329.643-0.085zM628.053 765.44v-76.8h-232.107v153.6h232.107v-76.8zM331.093 764.587v-75.947h-100.693c-85.504 0-100.693 0.384-100.693 2.389 0 5.077 10.581 34.475 17.451 48.512 22.955 47.019 63.061 76.544 124.203 91.435 17.493 4.267 45.611 9.045 55.040 9.387l4.693 0.171v-75.947zM716.587 837.888c82.005-11.904 132.608-42.667 159.531-96.939 7.296-14.72 18.176-44.587 18.176-49.92 0-2.005-15.189-2.389-100.693-2.389h-100.693v75.947c0 68.907 0.256 75.947 2.773 75.947 1.536 0 10.923-1.195 20.907-2.645zM905.387 618.24c0.597-4.011 0.768-85.973 0.427-182.187-0.683-192.128-0.384-185.856-11.52-230.741-19.456-78.123-61.44-120.149-139.605-139.605-45.483-11.349-40.235-11.093-242.688-11.093-167.936 0-185.131 0.256-203.093 3.072-118.869 18.517-167.637 66.859-187.136 185.515-2.645 15.957-3.029 37.077-3.584 192.853-0.341 96.213-0.171 178.176 0.427 182.187l1.067 7.253h784.64l1.067-7.253zM460.715 499.115c-39.509-5.845-66.432-34.944-74.283-80.256-2.219-12.928-2.56-27.136-2.005-83.243 0.64-63.829 0.853-68.395 4.437-80.171 5.76-19.157 13.227-32.341 24.789-43.861 24.363-24.277 57.728-30.805 94.677-18.603 15.573 5.163 111.445 59.179 132.181 74.539 38.613 28.501 51.797 74.368 32.555 113.365-11.221 22.699-27.221 37.163-66.347 59.861-86.656 50.219-93.099 53.419-116.907 57.728-14.251 2.56-15.616 2.603-29.099 0.64zM494.080 431.189c14.336-6.784 99.243-55.936 107.52-62.208 14.507-10.965 19.243-21.163 15.275-32.725-4.309-12.501-9.771-16.427-74.795-53.845-45.824-26.325-58.283-32.299-67.797-32.341-8.661-0.043-16.939 6.059-22.016 16.171l-4.267 8.533-0.555 60.075c-0.597 61.611 0.427 77.056 5.845 88.491 6.4 13.483 22.443 16.555 40.789 7.851z" />
<glyph unicode="&#xe910;" glyph-name="text" d="M186.88 850.731c-27.725-3.264-51.996-15.992-69.929-34.812l-0.044-0.046c-14.037-14.251-23.040-28.928-29.44-47.872l-4.608-13.653-0.043-56.32c-0.043-53.632 0.128-56.619 3.413-62.251 5.547-9.429 13.099-12.843 28.416-12.843 14.165 0 18.859 2.091 26.069 11.733 3.285 4.48 3.541 7.595 4.395 57.088l0.853 52.352 4.779 10.24c6.059 13.056 18.688 25.131 31.189 29.781 9.131 3.413 12.373 3.499 153.515 3.499h144.128v-679.040l-73.813-0.555c-70.485-0.469-74.069-0.683-79.787-3.968-4.167-2.768-7.498-6.482-9.738-10.847l-0.075-0.161c-7.936-15.659-3.115-37.76 9.813-45.227 5.888-3.413 8.405-3.456 186.027-3.456s180.139 0.043 186.027 3.456c18.091 10.453 18.091 45.781 0 56.235-5.717 3.285-9.301 3.499-79.787 3.968l-73.813 0.555v679.040h144.213c137.344 0 144.597-0.171 152.661-3.243 10.496-3.968 20.181-11.477 26.411-20.48 9.515-13.696 10.069-17.365 11.093-73.003 0.939-48.555 1.195-51.797 4.48-56.235 7.211-9.643 11.904-11.733 26.069-11.733 15.317 0 22.869 3.413 28.416 12.843 3.285 5.632 3.456 8.619 3.413 62.251l-0.043 56.32-4.608 13.653c-12.888 37.796-42.38 66.895-79.546 78.984l-0.881 0.248-13.867 4.395-321.707 0.213c-176.939 0.128-327.083-0.384-333.653-1.109z" />
<glyph unicode="&#xe911;" glyph-name="quote-down" d="M166.741 849.835c-57.139-10.958-101.316-55.767-111.197-112.364l-0.12-0.83c-2.304-13.269-2.603-29.056-2.133-102.229 0.597-82.389 0.811-87.211 4.309-99.712 13.632-48.070 50.641-85.192 97.641-98.739l1.005-0.248c13.355-3.755 15.616-3.797 133.717-4.395l120.192-0.555-1.152-32.768c-2.304-67.883-10.709-116.693-26.795-156.075-10.24-25.088-20.395-39.893-42.453-61.995-21.717-21.717-41.173-36.224-84.693-63.147-15.445-9.515-30.336-19.925-33.195-23.168-9.515-10.837-6.229-29.781 7.509-43.093 6.784-6.571 14.464-8.661 24.064-6.571 12.459 2.731 82.859 47.829 110.080 70.528 60.16 50.133 89.515 107.605 102.4 200.405 7.083 50.816 7.68 70.656 7.68 248.32v170.667l-3.84 13.312c-11.457 40.327-39.096 72.721-75.269 90.295l-0.849 0.372c-28.757 13.781-26.539 13.525-125.696 13.995-70.528 0.341-90.539-0.043-101.205-2.005zM664.491 849.963c-15.518-2.481-29.455-7.391-42.089-14.372l0.66 0.334c-37.779-20.471-64.629-56.986-71.533-100.159l-0.104-0.791c-2.517-16.171-2.517-170.368 0-186.539 8.405-54.229 47.616-97.835 101.376-112.768 13.397-3.712 15.787-3.797 133.547-4.352l119.893-0.555v-13.995c-0.043-33.92-4.949-84.907-11.349-118.059-12.373-64.043-35.413-103.253-82.901-141.013-11.264-9.003-49.195-34.219-70.741-47.061-8.96-5.376-18.517-11.947-21.205-14.635-10.197-10.197-10.197-23.552 0.043-38.912 6.357-9.6 13.483-13.867 23.296-13.867 9.088 0 14.635 2.731 47.659 23.296 68.523 42.709 100.011 70.955 128.384 115.243 20.992 32.725 36.779 83.413 43.819 140.8 6.144 49.749 6.955 77.995 6.955 242.347 0.043 152.149-0.171 162.987-3.115 175.701-13.397 57.045-57.856 99.371-114.859 109.312-19.712 3.456-168.832 3.456-187.733 0.043zM344.747 787.584c32.664-5.825 58.186-30.787 64.764-62.671l0.089-0.518c1.067-5.845 1.579-50.432 1.28-119.424l-0.427-110.037h-115.2c-104.661 0-116.096 0.256-124.8 2.987-22.144 6.827-41.813 26.112-49.579 48.597-3.968 11.52-3.968 11.989-3.968 95.189s0 83.669 3.968 95.189c9.259 26.752 32.64 46.635 59.563 50.56 14.336 2.133 151.040 2.176 164.309 0.128zM854.187 784.341c20.267-8.021 36.651-23.211 45.781-42.411l5.419-11.477 0.939-236.373-107.989 0.043c-63.275 0-112.939 0.725-119.936 1.749-32.341 4.711-57.82 29.253-63.881 60.708l-0.076 0.476c-1.024 5.376-1.749 40.448-1.749 84.651s0.725 79.275 1.749 84.651c5.931 31.275 31.659 56.491 62.379 61.141 5.547 0.853 45.44 1.408 88.619 1.195 78.208-0.299 78.549-0.341 88.747-4.352z" />
<glyph unicode="&#xe912;" glyph-name="category" d="M191.915 905.429c-64.427-5.717-107.947-36.139-127.189-88.875-9.813-26.837-10.88-38.101-10.88-112.555 0-56.491 0.469-69.973 2.944-83.115 12.032-64.597 51.499-104.064 116.096-116.096 13.141-2.475 26.624-2.944 83.115-2.944s69.973 0.469 83.115 2.944c53.888 10.069 91.093 39.851 108.16 86.656 9.813 26.837 10.88 38.101 10.88 112.555s-1.067 85.717-10.88 112.555c-16.981 46.507-54.4 76.715-107.264 86.443-17.024 3.157-120.917 4.864-148.096 2.432zM703.915 905.429c-64.427-5.717-107.947-36.139-127.189-88.875-9.813-26.837-10.88-38.101-10.88-112.555 0-56.491 0.469-69.973 2.944-83.115 12.032-64.597 51.499-104.064 116.096-116.096 13.141-2.475 26.624-2.944 83.115-2.944s69.973 0.469 83.115 2.944c53.888 10.069 91.093 39.851 108.16 86.656 9.813 26.837 10.88 38.101 10.88 112.555s-1.067 85.717-10.88 112.555c-16.981 46.507-54.4 76.715-107.264 86.443-17.024 3.157-120.917 4.864-148.096 2.432zM331.947 839.68c32.981-6.955 52.736-26.795 59.776-60.032 3.584-16.939 3.541-134.485-0.043-151.595-6.955-32.981-26.795-52.736-60.032-59.776-16.768-3.541-134.528-3.541-151.296 0-33.237 7.040-53.077 26.795-60.032 59.776-3.584 17.109-3.627 134.656-0.043 151.595 6.955 32.853 26.709 52.949 58.923 59.904 16.427 3.584 135.979 3.627 152.747 0.128zM843.947 839.68c32.981-6.955 52.736-26.795 59.776-60.032 3.584-16.939 3.541-134.485-0.043-151.595-6.955-32.981-26.795-52.736-60.032-59.776-16.768-3.541-134.528-3.541-151.296 0-33.237 7.040-53.077 26.795-60.032 59.776-3.584 17.109-3.627 134.656-0.043 151.595 6.955 32.853 26.709 52.949 58.923 59.904 16.427 3.584 135.979 3.627 152.747 0.128zM191.915 393.429c-64.427-5.717-107.947-36.139-127.189-88.875-9.813-26.837-10.88-38.101-10.88-112.555 0-56.491 0.469-69.973 2.944-83.115 12.032-64.597 51.499-104.064 116.096-116.096 13.141-2.475 26.624-2.944 83.115-2.944s69.973 0.469 83.115 2.944c53.888 10.069 91.093 39.851 108.16 86.656 9.813 26.837 10.88 38.101 10.88 112.555s-1.067 85.717-10.88 112.555c-16.981 46.507-54.4 76.715-107.264 86.443-17.024 3.157-120.917 4.864-148.096 2.432zM703.915 393.429c-64.427-5.717-107.947-36.139-127.189-88.875-9.813-26.837-10.88-38.101-10.88-112.555 0-56.491 0.469-69.973 2.944-83.115 12.032-64.597 51.499-104.064 116.096-116.096 13.141-2.475 26.624-2.944 83.115-2.944s69.973 0.469 83.115 2.944c53.888 10.069 91.093 39.851 108.16 86.656 9.813 26.837 10.88 38.101 10.88 112.555s-1.067 85.717-10.88 112.555c-16.981 46.507-54.4 76.715-107.264 86.443-17.024 3.157-120.917 4.864-148.096 2.432zM331.947 327.68c32.981-6.955 52.736-26.795 59.776-60.032 3.584-16.939 3.541-134.485-0.043-151.595-6.955-32.981-26.795-52.736-60.032-59.776-8.96-1.877-26.283-2.475-75.648-2.475s-66.688 0.597-75.648 2.475c-33.237 7.040-53.077 26.795-60.032 59.776-3.584 17.109-3.627 134.656-0.043 151.595 6.955 32.853 26.709 52.949 58.923 59.904 16.427 3.584 135.979 3.627 152.747 0.128zM843.947 327.68c32.981-6.955 52.736-26.795 59.776-60.032 3.584-16.939 3.541-134.485-0.043-151.595-6.955-32.981-26.795-52.736-60.032-59.776-8.96-1.877-26.283-2.475-75.648-2.475s-66.688 0.597-75.648 2.475c-33.237 7.040-53.077 26.795-60.032 59.776-3.584 17.109-3.627 134.656-0.043 151.595 6.955 32.853 26.709 52.949 58.923 59.904 16.427 3.584 135.979 3.627 152.747 0.128z" />
</font>
</defs>
</svg>
